<?xml version="1.0" standalone="no"?>
<!DOCTYPE svg PUBLIC "-//W3C//DTD SVG 1.1//EN" "http://www.w3.org/Graphics/SVG/1.1/DTD/svg11.dtd" >
<svg xmlns="http://www.w3.org/2000/svg">
<metadata>Generated by IcoMoon</metadata>
<defs>
<font id="phunic" horiz-adv-x="1024">
<font-face units-per-em="1024" ascent="960" descent="-64" />
<missing-glyph horiz-adv-x="1024" />
<glyph unicode="&#x20;" horiz-adv-x="512" d="" />
<glyph unicode="&#xe900;" glyph-name="star" horiz-adv-x="1152" d="M575.8 960c18.4 0 35.2-10.4 43.2-27l137.2-282.6 306.4-45.2c18-2.6 33-15.2 38.6-32.6s1-36.2-11.8-49l-222.2-220.4 52.4-311.2c3-18-4.4-36.2-19.2-47s-34.6-12-50.6-3.4l-274 146.4-273.8-146.2c-16.2-8.6-35.8-7.4-50.6 3.4s-22.4 29-19.4 47l52.4 311.2-222.2 220.2c-13 12.8-17.4 31.8-11.8 49s20.6 29.8 38.6 32.6l306.4 45.2 137.2 282.6c8.2 16.6 24.8 27 43.2 27zM575.8 802l-105-216.4c-7-14.2-20.4-24.2-36.2-26.6l-236.6-34.8 171.8-170.2c11-11 16.2-26.6 13.6-42l-40.6-239.4 210.4 112.4c14.2 7.6 31.2 7.6 45.2 0l210.4-112.4-40.4 239.2c-2.6 15.4 2.4 31 13.6 42l171.8 170.2-236.6 35c-15.6 2.4-29.2 12.2-36.2 26.6l-105.2 216.4z" />
<glyph unicode="&#xe901;" glyph-name="conlang2" d="M512 802c-316.1-0.406-512-252.002-512-482 0-107.235 32.425-176.528 52.594-207.949l27.406 57.949 790 76 32.227-64.746-846.883-73.277c3.911-5.743 7.195-10.020 9.5-12.594l885.156 72.617 22.457-55.395c21.862 33.208 51.543 107.008 51.543 207.395 0 253.998-214.002 482-512 482zM412 494h200l8-18-224-18 16 36zM650 464l16-36-324-30 18 42 290 24zM692 416l17.809-37.648-431.809-42.352 20 44 394 36zM744 366l24-48-560-56 24 56 512 48zM810 308l22-52-700-68 26 54 652 66z" />
<glyph unicode="&#xe902;" glyph-name="emacs" horiz-adv-x="953" d="M783.986 963.865h-275.721c83.997-19.531 275.721-63.47 275.721-98.442 0-74.39-354.471 19.638-433.184 19.638-39.366 0-118.026-6.581-118.115-59.058-0.338-137.717 185.123-255.869 314.998-334.671-90.454 26.238-173.296 39.348-252.045 39.348-102.407 0-299.236-39.348-299.236-177.28 0-121.709 246.779-233.919 314.998-255.834 118.507-38.156 314.998-58.844 314.998-78.749 0-19.798-157.464-39.348-354.471-39.348h-118.098c78.821-39.561 196.918-39.561 315.104-39.561l118.098 0.089c78.732 0.089 275.561 2.935 275.561 70.905 0 59.253-236.194 109.524-354.381 133.912-164.739 33.975-284.367 100.096-275.561 149.475 20.955 118.667 314.998 118.187 551.299 118.187-103.047 82.876-354.471 236.285-354.471 303.31 0 28.551 39.455 35.238 78.732 35.346 157.553 0.907 275.721-33.318 315.158-33.318 78.66 0 118.045 49.095 118.045 108.172 0.035 98.53-117.99 137.877-157.427 137.877z" />
<glyph unicode="&#xe903;" glyph-name="gitea" d="M179.534 736.179c-10.527 0-22.386-0.823-35.824-3.754-14.172-2.932-54.552-12.077-87.618-43.842-73.302-65.32-54.584-169.208-52.304-184.844 2.769-19.058 11.207-71.999 51.604-118.097 74.605-91.383 235.239-89.273 235.239-89.273s19.688-47.089 49.823-90.418c40.723-53.917 82.592-95.932 123.315-100.981 102.622 0 307.714 0.127 307.714 0.127s19.581-0.143 46.131 16.798c22.805 13.846 43.141 38.115 43.141 38.114s21.011 22.5 50.332 73.811c8.959 15.801 16.455 31.062 22.97 45.559 0 0 89.91 190.801 89.91 376.498-1.792 56.198-15.641 66.099-18.899 69.357-6.679 6.679-15.653 6.554-15.653 6.554s-190.895-10.763-289.771-13.044c-21.601-0.488-43.054-0.981-64.33-1.145l0.127-190.572c0 0 93.541-39.449 135.404-65.347 6.027-3.747 16.6-11.1 20.998-23.479 3.421-9.936 3.232-21.334-1.654-31.433l-99.326-206.67c-10.099-20.687-34.869-29.534-55.231-19.598l-206.733 99.39c-20.362 9.774-29.153 34.516-19.216 55.039l99.39 206.733c9.774 20.362 34.516 29.153 55.040 19.216 27.903-13.465 43.837-21.063 43.969-21.125 0 59.356-0.127 177.655-0.127 177.655-47.239-0.652-145.331 3.627-145.331 3.627s-230.325 11.527-255.41 13.807c-7.982 0.489-17.153 1.336-27.679 1.336zM199.387 657.979c0 0 11.57-96.789 25.579-153.475 11.728-47.565 40.406-126.559 40.406-126.559s-42.528 5.053-70.056 14.825c-42.189 13.846-60.067 30.479-60.067 30.479s-31.131 21.836-46.768 64.839c-26.877 71.999-2.291 115.934-2.291 115.934s13.708 36.651 62.739 48.868c22.479 6.027 50.459 5.090 50.459 5.090zM523.077 350.102c-13.357-0.163-25.085-9.448-28.18-22.479s3.258-26.551 14.823-32.579c12.543-6.516 28.506-2.932 36.977 8.796 8.308 11.565 7.004 27.529-2.932 37.628l39.094 79.98c2.443-0.163 6.027-0.326 10.099 0.814 6.679 1.466 11.565 5.864 11.565 5.864 6.841-2.932 14.009-6.19 21.502-9.936 7.819-3.909 15.149-7.982 21.828-11.891 1.466-0.814 2.932-1.792 4.561-3.095 2.606-2.118 5.538-5.050 7.656-8.959 3.095-8.959-3.095-24.271-3.095-24.271-3.747-12.38-29.972-66.134-29.972-66.134-13.194 0.326-24.923-8.145-28.832-20.362-4.235-13.194 1.792-28.18 14.497-34.696s28.343-2.769 36.651 8.633c8.145 11.077 7.493 26.551-1.792 36.814 3.095 6.027 6.027 12.054 9.122 18.407 8.145 16.941 21.99 49.519 21.99 49.519 1.466 2.769 9.285 16.778 4.398 34.696-4.072 18.57-20.524 27.203-20.524 27.203-19.873 12.869-47.565 24.76-47.565 24.76s0 6.679-1.792 11.565c-1.792 5.050-4.561 8.308-6.353 10.262 7.656 15.801 15.312 31.438 22.968 47.239-6.679 3.258-13.194 6.516-19.873 9.936-7.819-15.963-15.801-32.090-23.619-48.053-10.914 0.163-21.013-5.701-26.226-15.312-5.538-10.262-4.398-22.968 3.095-32.253l-40.072-82.098z" />
<glyph unicode="&#xe904;" glyph-name="share" horiz-adv-x="896" d="M570.8 565.8l-188.2-94c1-7.8-0.4-14-0.4-23.8 0-8 1.4-14.2 0.4-23.8l188.2-94c34.4 33.4 81.4 53.8 133.2 53.8 106 0 192-84.2 192-192 0-106-86-192-192-192-107.8 0-192 86-192 192 0 9.8 0.4 16 1.4 23.8l-188.2 94c-34.4-33.4-81.4-53.8-133.2-53.8-106.040 0-192 86-192 192 0 107.8 85.96 192 192 192 51.8 0 98.8-20.4 133.2-53.8l188.2 94c-1 9.6-1.4 15.8-1.4 23.8 0 106.040 84.2 192 192 192 106 0 192-85.96 192-192 0-106-86-192-192-192-51.8 0-98.8 20.4-133.2 53.8v0z" />
<glyph unicode="&#xe905;" glyph-name="terminal" horiz-adv-x="1152" d="M18.744 786.74c-24.992 25-24.992 65.52 0 90.52 24.996 24.98 65.516 24.98 90.516 0l383.94-384.060c25-25 25-65.4 0-90.4l-383.94-384c-25-25-65.52-25-90.516 0-24.992 25-24.992 65.4 0 90.4l338.656 338.8-338.656 338.74zM1088 128c35.4 0 64-28.6 64-64s-28.6-64-64-64h-576c-35.4 0-64 28.6-64 64s28.6 64 64 64h576z" />
<glyph unicode="&#xe906;" glyph-name="at" d="M415.6 918.54c-186.9-36.64-337.4-187.32-374-374.2-55.28-281.8 137.3-532.4 398.2-570.2 38.020-5.776 72.34 24.52 72.34 62.98v1.326c0 31.48-22.88 57.76-53.68 62.48-168.7 25.96-298.4 172.26-298.4 348.4 0 205.8 177.22 371 386.8 350.8 183.080-17.738 317.2-182.5 317.2-366.4v-32.32c0-44.18-35.88-80.1-80-80.1s-80.020 35.92-80.020 80.1v240.2c0 17.694-14.322 32.040-32.020 32.040l-63.96-0.007c-14.598 0-26.4-9.984-30.24-23.36-49.7 24.3-108.48 32.76-172.12 10.212-77.5-27.46-136.24-97.82-147.44-179.28-18.966-138.020 87.62-256 221.8-256 52.88 0 100.86 19.088 139.18 49.76 48-62.6 130.46-97.38 218.8-74.98 92.36 21.409 153.96 111.809 152.16 205.609v41.8c0 298.4-267.8 531.264-574.6 471.14zM478.2 351.4c-52.94 0-96 43.12-96 96.1s43.060 96.1 96 96.1 96-43.12 96-96.1-41.2-96.1-96-96.1z" />
<glyph unicode="&#xe907;" glyph-name="mastodon" horiz-adv-x="896" d="M866 601.78c0 194.4-127.42 251.4-127.42 251.4-125.040 57.4-457.12 56.8-580.96 0 0 0-127.44-57-127.44-251.4 0-231.4-13.2-518.8 211.26-578.2 81.020-21.4 150.64-26 206.66-22.8 101.62 5.6 158.64 36.2 158.64 36.2l-3.4 73.8s-72.62-22.8-154.24-20.2c-80.82 2.8-166 8.8-179.26 108-1.147 8.146-1.801 17.557-1.801 27.12 0 0.239 0 0.478 0.001 0.717v-0.037c171.26-41.8 317.3-18.2 357.5-13.4 112.24 13.4 210 82.6 222.46 145.8 19.6 99.6 18 243 18 243zM715.76 351.38h-93.26v228.4c0 99.4-128 103.2-128-13.8v-125h-92.66v125.020c0 117-128 113.2-128 13.8v-228.4h-93.46c0 244.2-10.4 295.8 36.82 350 51.8 57.8 159.64 61.6 207.66-12.2l23.2-39 23.2 39c48.22 74.2 156.24 69.6 207.66 12.2 47.42-54.6 36.8-106 36.8-350z" />
<glyph unicode="&#xe908;" glyph-name="conlang" d="M512 800c-385.364 0-621.988-380.55-460.664-693.875l106.664 131.875 654 66 84-130-842.73-71.551c2.159-4.106 4.349-8.208 6.645-12.289l892.086 73.84 20.246-53.512c157.457 279.979-52.304 689.512-460.246 689.512zM410 490h204l54-66-328-30 70 96zM694 412l74-98-560-56 90 118 396 36z" />
<glyph unicode="&#xe909;" glyph-name="link" horiz-adv-x="1280" d="M1159.6 424.6c113 113 113 296 0 409-100 100-257.6 113-372.6 30.8l-3.2-2.2c-28.8-20.6-35.4-60.6-14.8-89.2s60.6-35.4 89.2-14.8l3.2 2.2c64.2 45.8 152 38.6 207.6-17.2 63-63 63-165 0-228l-224.4-224.8c-63-63-165-63-228 0-55.8 55.8-63 143.6-17.2 207.6l2.2 3.2c20.6 28.8 13.8 68.8-14.8 89.2s-68.8 13.8-89.2-14.8l-2.2-3.2c-82.4-114.8-69.4-272.4 30.6-372.4 113-113 296-113 409 0l224.6 224.6zM120.4 471.4c-113-113-113-296 0-409 100-100 257.6-113 372.6-30.8l3.2 2.2c28.8 20.6 35.4 60.6 14.8 89.2s-60.6 35.4-89.2 14.8l-3.2-2.2c-64.2-45.8-152-38.6-207.6 17.2-63 63.2-63 165.2 0 228.2l224.4 224.6c63 63 165 63 228 0 55.8-55.8 63-143.6 17.2-207.8l-2.2-3.2c-20.6-28.8-13.8-68.8 14.8-89.2s68.8-13.8 89.2 14.8l2.2 3.2c82.4 115 69.4 272.6-30.6 372.6-113 113-296 113-409 0l-224.6-224.6z" />
<glyph unicode="&#xe90a;" glyph-name="code" horiz-adv-x="1280" d="M829.6 878.42l-256-896.020c-9.8-34-45.2-53.6-79.2-44-34 9.8-53.6 45.2-44 79.2l256 895.98c9.8 33.988 45.2 53.668 79.2 43.956 34-9.71 53.6-45.136 44-79.116v0zM1037.2 717.2l224-224c25-25 25-65.4 0-90.4l-224-224c-25-25-65.4-25-90.4 0s-25 65.4 0 90.4l178.6 178.8-178.6 178.8c-25 25-25 65.4 0 90.4s65.4 25 90.4 0v0zM333.2 626.8l-178.7-178.8 178.7-178.8c25-25 25-65.4 0-90.4s-65.4-25-90.4 0l-224.056 224c-24.992 25-24.992 65.4 0 90.4l224.056 224c25 25 65.4 25 90.4 0s25-65.4 0-90.4v0z" />
<glyph unicode="&#xe90b;" glyph-name="fork" horiz-adv-x="896" d="M320 800c0-65.6-39.4-120.2-96-146.6v-175.6c37.6 21.8 81.4 34.2 128 34.2h192c70.6 0 128 57.4 128 128v13.4c-56.6 26.4-96 81-96 146.6 0 88.36 71.6 160 160 160s160-71.64 160-160c0-65.6-39.4-120.2-96-146.6v-13.4c0-141.4-114.6-256-256-256h-192c-70.6 0-128-57.4-128-128v-13.4c56.6-24.6 96-81 96-146.6 0-88.4-71.6-160-160-160-88.36 0-160 71.6-160 160 0 65.6 39.5 122 96 146.6v410.8c-56.5 26.4-96 81-96 146.6 0 88.36 71.64 160 160 160 88.4 0 160-71.64 160-160v0zM160 752c26.5 0 48 21.5 48 48s-21.5 48-48 48c-26.5 0-48-21.5-48-48s21.5-48 48-48zM736 848c-26.6 0-48-21.5-48-48s21.4-48 48-48c26.6 0 48 21.5 48 48s-21.4 48-48 48zM160 48c26.5 0 48 21.4 48 48s-21.5 48-48 48c-26.5 0-48-21.4-48-48s21.5-48 48-48z" />
<glyph unicode="&#xe90c;" glyph-name="house" horiz-adv-x="1152" d="M1151.6 449c0-36-30-64.2-64-64.2h-64l1.4-320.2c0-5.6-0.4-10.8-1-16.2v-32.4c0-44.2-35.8-80-80-80h-32c-2.2 0-4.4 1.8-6.6 0.2-2.8 1.6-5.6-0.2-8.4-0.2h-113c-44.2 0-80 35.8-80 80v176c0 35.4-28.6 64-64 64h-128c-35.4 0-64-28.6-64-64v-176c0-44.2-35.8-80-80-80h-111.8c-3 0-6 0.2-9 0.4-2.4-0.2-4.8-0.4-7.2-0.4h-32c-44.18 0-80 35.8-80 80v224c0 1.8 0.060 3.8 0.18 5.6v139.2h-64.080c-36.060 0-64.1 28.2-64.1 64.2 0 18 6.008 34 20.020 48l512.78 446.968c14 14.028 30 16.032 44 16.032s30-4.008 42.2-14.028l510.6-448.972c16-14 24.2-30 22-48v0z" />
<glyph unicode="&#xe90d;" glyph-name="language" horiz-adv-x="1280" d="M896 632c22 0 40-16.2 40-40v-8h120c22 0 40-16.2 40-40 0-22-18-40-40-40h-4l-3.2-9c-17.8-47.2-45-93.2-79.4-130.8 1.8-1 3.6-0.4 5.4-3.2l37.8-22.6c19-11.4 25-36 13.6-55-11.2-19-35.8-25-54.8-13.6l-37.8 22.6c-8.8 5.4-19.4 11-26.2 17-21-15-43.8-28-67.8-38.8l-7.4-3.2c-20.2-9-43.8 0.2-52.8 20.4s0.2 43.8 20.4 52.8l7.2 3.2c12.8 5.8 25.2 14 37 19.6l-24.2 24.4c-15.8 15.6-15.8 40.8 0 56.4 15.6 15.8 40.8 15.8 56.4 0l29.2-29 1.2 0.6c24.8 24.4 45 54.8 59.6 90h-214.2c-23.8 0-40 16.2-40 40 0 22 16.2 40 40 40h104v8c0 22 16.2 40 40 40v-1.8zM320 493.6l38-85.6h-77.8l39.8 85.6zM0 704c0 70.7 57.3 128 128 128h1024c70.6 0 128-57.3 128-128v-512c0-70.6-57.4-128-128-128h-1024c-70.7 0-128 57.4-128 128v512zM640 192h512v512h-512v-512zM356.6 608.2c-6.4 14.4-20.8 23.8-36.6 23.8s-30.2-9.4-36.6-23.8l-127.96-288c-8.96-18.4 0.12-43.8 20.32-52.8 20.18-9 43.84 0.2 52.84 20.4l17.8 42h147.2l17.8-42c9-20.2 32.6-29.4 52.8-20.4s29.4 34.4 20.4 52.8l-128 288z" />
<glyph unicode="&#xe90e;" glyph-name="mic-lines" horiz-adv-x="768" d="M384 256c106.060 0 192 85.94 192 192h-160c-17.6 0-32 14.4-32 32s14.4 32 32 32h160v64h-160c-17.6 0-32 14.4-32 32s14.4 32 32 32h160v65.8h-160c-17.672 0-32 14.328-32 32s14.328 32 32 32l160-1.8c0 106.060-85.94 192-192 192s-192-85.94-192-192v-320c0-106 84.2-192 192-192zM688 576c-26.6 0-48-21.4-48-46.2v-81.8c0-146.66-123.94-264.8-272.6-255.4-132.16 8.338-239.4 133.18-239.4 265.6v71.6c0 24.8-21.5 46.2-48 46.2s-48-21.4-48-46.2v-64.3c0-179.32 127.94-339.2 304-363.4v-70.1h-80c-36.38 0-65.68-30.36-63.92-67.14 0.78-16.46 15.52-28.86 31.92-28.86h320c16.444 0 31.14 12.432 31.92 28.86 1.68 36.74-27.52 67.14-63.92 67.14h-80v67.54c171.4 23.46 304 170.66 304 348.46v81.8c0 24.8-21.4 46.2-48 46.2z" />
<glyph unicode="&#xe90f;" glyph-name="question" horiz-adv-x="640" d="M408.6 895.98h-216.6c-105.88 0-192-86.12-192-192 0-35.34 28.62-62.2 64-62.2s64 28.64 64 62.2c0 35.28 28.68 64 64 64h216.6c57 0 103.4-46.38 103.4-103.58 0-39.44-21.94-74.94-61-94.66l-195.4-114.54c-21.4-11.6-31.6-32.6-31.6-55.2v-80c0-35.34 28.62-63.98 64-63.98s64 28.64 64 63.98v43.4l160 94c78.94 39.5 128 118.84 128 207 0 127.7-103.8 231.58-231.4 231.58zM288 160c-44.18 0-80-35.82-80-80s35.82-78.2 80-78.2 80 35.8 80 78.2-35.8 80-80 80z" />
<glyph unicode="&#xea96;" glyph-name="twitter" d="M1024 733.6c-37.6-16.8-78.2-28-120.6-33 43.4 26 76.6 67.2 92.4 116.2-40.6-24-85.6-41.6-133.4-51-38.4 40.8-93 66.2-153.4 66.2-116 0-210-94-210-210 0-16.4 1.8-32.4 5.4-47.8-174.6 8.8-329.4 92.4-433 219.6-18-31-28.4-67.2-28.4-105.6 0-72.8 37-137.2 93.4-174.8-34.4 1-66.8 10.6-95.2 26.2 0-0.8 0-1.8 0-2.6 0-101.8 72.4-186.8 168.6-206-17.6-4.8-36.2-7.4-55.4-7.4-13.6 0-26.6 1.4-39.6 3.8 26.8-83.4 104.4-144.2 196.2-146-72-56.4-162.4-90-261-90-17 0-33.6 1-50.2 3 93.2-59.8 203.6-94.4 322.2-94.4 386.4 0 597.8 320.2 597.8 597.8 0 9.2-0.2 18.2-0.6 27.2 41 29.4 76.6 66.4 104.8 108.6z" />
<glyph unicode="&#xea9b;" glyph-name="rss" d="M136.294 209.070c-75.196 0-136.292-61.334-136.292-136.076 0-75.154 61.1-135.802 136.292-135.802 75.466 0 136.494 60.648 136.494 135.802-0.002 74.742-61.024 136.076-136.494 136.076zM0.156 612.070v-196.258c127.784 0 247.958-49.972 338.458-140.512 90.384-90.318 140.282-211.036 140.282-339.3h197.122c-0.002 372.82-303.282 676.070-675.862 676.070zM0.388 960v-196.356c455.782 0 826.756-371.334 826.756-827.644h196.856c0 564.47-459.254 1024-1023.612 1024z" />
<glyph unicode="&#xea9d;" glyph-name="youtube" d="M1013.8 652.8c0 0-10 70.6-40.8 101.6-39 40.8-82.6 41-102.6 43.4-143.2 10.4-358.2 10.4-358.2 10.4h-0.4c0 0-215 0-358.2-10.4-20-2.4-63.6-2.6-102.6-43.4-30.8-31-40.6-101.6-40.6-101.6s-10.2-82.8-10.2-165.8v-77.6c0-82.8 10.2-165.8 10.2-165.8s10-70.6 40.6-101.6c39-40.8 90.2-39.4 113-43.8 82-7.8 348.2-10.2 348.2-10.2s215.2 0.4 358.4 10.6c20 2.4 63.6 2.6 102.6 43.4 30.8 31 40.8 101.6 40.8 101.6s10.2 82.8 10.2 165.8v77.6c-0.2 82.8-10.4 165.8-10.4 165.8zM406.2 315.2v287.8l276.6-144.4-276.6-143.4z" />
<glyph unicode="&#xea9f;" glyph-name="twitch" d="M96 960l-96-160v-736h256v-128h128l128 128h160l288 288v608h-864zM832 416l-160-160h-160l-128-128v128h-192v576h640v-416zM608 704h96v-256h-96v256zM416 704h96v-256h-96v256z" />
<glyph unicode="&#xeab0;" glyph-name="github" d="M512.008 947.358c-282.738 0-512.008-229.218-512.008-511.998 0-226.214 146.704-418.132 350.136-485.836 25.586-4.738 34.992 11.11 34.992 24.632 0 12.204-0.48 52.542-0.696 95.324-142.448-30.976-172.504 60.41-172.504 60.41-23.282 59.176-56.848 74.916-56.848 74.916-46.452 31.778 3.51 31.124 3.51 31.124 51.4-3.61 78.476-52.766 78.476-52.766 45.672-78.27 119.776-55.64 149.004-42.558 4.588 33.086 17.852 55.68 32.506 68.464-113.73 12.942-233.276 56.85-233.276 253.032 0 55.898 20.004 101.574 52.76 137.428-5.316 12.9-22.854 64.972 4.952 135.5 0 0 43.006 13.752 140.84-52.49 40.836 11.348 84.636 17.036 128.154 17.234 43.502-0.198 87.336-5.886 128.256-17.234 97.734 66.244 140.656 52.49 140.656 52.49 27.872-70.528 10.35-122.6 5.036-135.5 32.82-35.856 52.694-81.532 52.694-137.428 0-196.654-119.778-239.95-233.79-252.624 18.364-15.89 34.724-47.046 34.724-94.812 0-68.508-0.596-123.644-0.596-140.508 0-13.628 9.222-29.594 35.172-24.566 203.322 67.776 349.842 259.626 349.842 485.768 0 282.78-229.234 511.998-511.992 511.998z" />
<glyph unicode="&#xeab1;" glyph-name="npm" d="M0 960v-1024h1024v1024h-1024zM832 128h-128v512h-192v-512h-320v640h640v-640z" />
<glyph unicode="&#xeabd;" glyph-name="tux" d="M567.656 223.084c-81.944-38.118-158.158-37.716-209.34-34.020-61.052 4.41-110.158 21.124-131.742 35.732-13.3 9.006-31.384 5.522-40.39-7.782-9.004-13.302-5.52-31.386 7.782-40.39 34.698-23.486 96.068-40.954 160.162-45.58 10.866-0.784 22.798-1.278 35.646-1.278 55.782 0 126.626 5.316 202.42 40.57 14.564 6.778 20.878 24.074 14.104 38.64-6.776 14.566-24.076 20.872-38.642 14.108zM890.948 266.184c2.786 252.688 28.762 730.206-454.97 691.612-477.6-38.442-350.964-542.968-358.082-711.95-6.308-89.386-35.978-198.648-77.896-309.846h129.1c13.266 47.122 23.024 93.72 27.232 138.15 7.782-5.428 16.108-10.674 24.994-15.7 14.458-8.518 26.884-19.844 40.040-31.834 30.744-28.018 65.59-59.774 133.712-63.752 4.572-0.262 9.174-0.394 13.676-0.394 68.896 0 116.014 30.154 153.878 54.382 18.14 11.612 33.818 21.64 48.564 26.452 41.91 13.12 78.532 34.296 105.904 61.252 4.276 4.208 8.242 8.538 11.962 12.948 15.246-55.878 36.118-118.758 59.288-181.504h275.65c-66.174 102.224-134.436 202.374-133.052 330.184zM124.11 403.648c0 0.016 0 0.030-0.002 0.046-4.746 82.462 34.71 151.832 88.126 154.936 53.412 3.106 100.56-61.228 105.304-143.692 0-0.014 0.004-0.030 0.004-0.044 0.256-4.446 0.368-8.846 0.37-13.206-16.924-4.256-32.192-10.436-45.872-17.63-0.052 0.612-0.092 1.216-0.152 1.83 0 0.008 0 0.018 0 0.026-4.57 46.81-29.572 82.16-55.852 78.958-26.28-3.204-43.88-43.75-39.312-90.558 0-0.010 0.004-0.018 0.004-0.026 1.992-20.408 7.868-38.636 16.042-52.444-2.034-1.604-7.784-5.812-14.406-10.656-4.97-3.634-11.020-8.058-18.314-13.43-19.882 26.094-33.506 63.58-35.94 105.89zM665.26 199.822c-1.9-43.586-58.908-84.592-111.582-101.044l-0.296-0.096c-21.9-7.102-41.428-19.6-62.104-32.83-34.732-22.224-70.646-45.208-122.522-45.208-3.404 0-6.894 0.104-10.326 0.296-47.516 2.778-69.742 23.032-97.88 48.676-14.842 13.526-30.19 27.514-49.976 39.124l-0.424 0.244c-42.706 24.104-69.212 54.082-70.908 80.194-0.842 12.98 4.938 24.218 17.182 33.4 26.636 19.972 44.478 33.022 56.284 41.658 13.11 9.588 17.068 12.48 20 15.264 2.096 1.986 4.364 4.188 6.804 6.562 24.446 23.774 65.36 63.562 128.15 63.562 38.404 0 80.898-14.8 126.17-43.902 21.324-13.878 39.882-20.286 63.38-28.4 16.156-5.578 34.468-11.902 58.992-22.404l0.396-0.164c22.88-9.404 49.896-26.564 48.66-54.932zM652.646 302.194c-4.4 2.214-8.974 4.32-13.744 6.286-22.106 9.456-39.832 15.874-54.534 20.998 8.116 15.894 13.16 35.72 13.624 57.242 0 0.010 0 0.022 0 0.030 1.126 52.374-25.288 94.896-58.996 94.976-33.71 0.078-61.95-42.314-63.076-94.686 0-0.010 0-0.018 0-0.028-0.038-1.714-0.042-3.416-0.020-5.11-20.762 9.552-41.18 16.49-61.166 20.76-0.092 1.968-0.204 3.932-0.244 5.92 0 0.016 0 0.036 0 0.050-1.938 95.412 56.602 174.39 130.754 176.402 74.15 2.014 135.828-73.7 137.772-169.11 0-0.018 0-0.038 0-0.052 0.874-43.146-10.66-82.866-30.37-113.678z" />
<glyph unicode="&#xeac9;" glyph-name="linkedin" d="M928 960h-832c-52.8 0-96-43.2-96-96v-832c0-52.8 43.2-96 96-96h832c52.8 0 96 43.2 96 96v832c0 52.8-43.2 96-96 96zM384 128h-128v448h128v-448zM320 640c-35.4 0-64 28.6-64 64s28.6 64 64 64c35.4 0 64-28.6 64-64s-28.6-64-64-64zM832 128h-128v256c0 35.4-28.6 64-64 64s-64-28.6-64-64v-256h-128v448h128v-79.4c26.4 36.2 66.8 79.4 112 79.4 79.6 0 144-71.6 144-160v-288z" />
<glyph unicode="&#xead0;" glyph-name="stackoverflow" d="M1024 320v-384h-1024v384h128v-256h768v256zM192 256h640v-128h-640zM207.152 394.534l27.698 124.964 624.832-138.496-27.698-124.964zM279.658 651.442l54.092 116.006 580.032-270.464-54.092-116.006zM991.722 598.524l-77.922-101.55-507.746 389.608 56.336 73.418h58.244z" />
<glyph unicode="&#xeae7;" glyph-name="git" d="M1004.692 493.606l-447.096 447.080c-25.738 25.754-67.496 25.754-93.268 0l-103.882-103.876 78.17-78.17c12.532 5.996 26.564 9.36 41.384 9.36 53.020 0 96-42.98 96-96 0-14.82-3.364-28.854-9.362-41.386l127.976-127.974c12.532 5.996 26.566 9.36 41.386 9.36 53.020 0 96-42.98 96-96s-42.98-96-96-96-96 42.98-96 96c0 14.82 3.364 28.854 9.362 41.386l-127.976 127.974c-3.042-1.456-6.176-2.742-9.384-3.876v-266.968c37.282-13.182 64-48.718 64-90.516 0-53.020-42.98-96-96-96s-96 42.98-96 96c0 41.796 26.718 77.334 64 90.516v266.968c-37.282 13.18-64 48.72-64 90.516 0 14.82 3.364 28.852 9.36 41.384l-78.17 78.17-295.892-295.876c-25.75-25.776-25.75-67.534 0-93.288l447.12-447.080c25.738-25.75 67.484-25.75 93.268 0l445.006 445.006c25.758 25.762 25.758 67.54-0.002 93.29z" />
</font>
</defs>
</svg>
